Skip to main content

Club d'Elf Live at Club Helsinki on 2011-04-09




1) Intro
2) Sand
3) ?
4) Madrecita
5) Band Intros
6) Ambib
7) The Tingler
8) Berber Song

Disc 2:
set 2:

01) Sidi Rabi
02) Zeed Al Maal (w/ Kalimba jam)
03) Mogador
04) Instar


Collection ClubdElf
Band/Artist Club d'Elf
Venue Club Helsinki
Location Hudson, NY

Source Neumann U89 (left mic stage lip, right mic on stage, split 12 ft. subcard, -80h)> Grace Design Lunatec V2> Mytek Stereo 192 ADC>Edirol R-44 (24/48) on a SDHC Card
Lineage SDHC Card> Card Reader> PC> Samplitude SE No. 9 (Normalize, Fade in/out, Dither to 16 bit, Resample to 48k)> Wave Editor (tracking, fades)> XAct (FLAC Level 8,fix sbe)
Taped by Ed Guidry
Transferred by Andy Murray


Notes

Club d'Elf
2011-04-09
Club Helsinki
Hudson, NY

Recorded by Ed Guidry

Transferred by Andy Murray

Source:
Neumann U89 (left mic stage lip, right mic on stage, split 12 ft. subcard, -80h)> Grace Design Lunatec V2> Mytek Stereo 192 ADC>Edirol R-44 (24/48)
on a SDHC Card.

Transfer:
SDHC Card> Card Reader> PC> Samplitude SE No. 9 (Normalize, Fade in/out, Dither to 16 bit, Resample to 48k)> Wave Editor (tracking, fades)> XAct (FLAC Level 8,fix sbe)

John Medeski (keyboards & melodica)
Brahim Fribgane (oud, vocals & percussion)
Mister Rourke (turntables)
Mike Rivard (bass, sintir & electric bass kalimba)
Dean Johnston (drums)

2 Discs
2 Sets

length expanded size cdr WAVE problems fmt ratio filename
1:33.62 16551068 B --- -- ----- delf2011-04-09_u89_1644_d1t01.wav
16:03.59 170012012 B --- -- ----- delf2011-04-09_u89_1644_d1t02.wav
13:09.38 139269020 B --- -- ----- delf2011-04-09_u89_1644_d1t03.wav
12:27.53 131895500 B --- -- ----- delf2011-04-09_u89_1644_d1t04.wav
2:02.65 21673724 B --- -- ----- delf2011-04-09_u89_1644_d1t05.wav
14:10.51 150059996 B --- -- ----- delf2011-04-09_u89_1644_d1t06.wav
27:51.03 294771500 B --- -- ----- delf2011-04-09_u89_1644_d1t07.wav
13:25.28 142067900 B --- -- ----- delf2011-04-09_u89_1644_d1t08.wav
20:49.18 220365980 B --- -- ----- delf2011-04-09_u89_1644_d2t01.wav
22:41.74 240254492 B --- -- ----- delf2011-04-09_u89_1644_d2t02.wav
18:46.24 198682892 B --- -- ----- delf2011-04-09_u89_1644_d2t03.wav
12:52.26 136241996 B --- -- ----- delf2011-04-09_u89_1644_d2t04.wav
175:54.51 1861846080 B 1.0000 (12 files)

Reviews

Reviewer: muziklvr - - April 19, 2011
Subject: setlist completion...
set1, t03 is "Hegaz"

Cheers!!

Thanks for this. Sounds terrific!!
Reviewer: snakes - - April 15, 2011
Subject: special
having seen club d'elf since '98,including with medeski multiple times (Vassar Chapel comes to mind), this show was just special. First time for myself and the band at this new venue, and the room definitely had something to do with it, along with a very respectful yet eager, and dancing, crowd. I'm 30 and saw people twice my age getting down. Can't wait til they make this a yearly jaunt. Sick show.
Reviewer: Shad0w608 - - April 13, 2011
Subject: Track Names
1) Intro
2) Sand
3) ?
4) Madrecita
5) Band Intros
6) Ambib
7) The Tingler
8) Berber Song
9) Sidi Rabi
10) Zeed Al Maal (w/ Kalimba jam)
11) Mogador
12) Instar

Incredible show, the energy coming from the stage was otherworldly. Thanks to Ed and Andy for their work capturing this!
PEOPLE ALSO FOUND
Club d'Elf
by Club d'Elf
43
0
0
Source: DPA 4023>Lunatec V3>AD2K(24bit/96khz)>Tascam HD-P2
Club d'Elf
by Club d'Elf
56
0
0
Source: Schoeps MK22>KC5>CMC6>Sonosax SX-M2>Apogee Mini-me(aes out,24bit/96khz)>COAX>Edirol R-44
Club d'Elf
by Club d'Elf
141
0
0
Source: Schoeps MK21>KC5>CMC6>Sonosax SX-M2>Apogee Mini-me(@24 Bit 96khz aes out)>COAX>Edirol R-44+Mono Soundboard feed directly to R-44
Club d'Elf
by Club d'Elf
117
0
0
Source: DPA 4023>Lunatec V3>AD2K>Tascam HD-P2(24bit/96khz)
Club d'Elf
by Club d'Elf
79
0
1
( 1 reviews )
Source: Schoeps MK 22>KC5>CMC6>Sonosax SX-M2>Apogee Mini-me(24 Bit/96 khz,aes out)>COAX>Edirol R-44 +Soundboard>Channels 3&4 Edirol R-44
Club d'Elf
by Club d'Elf
64
0
1
( 1 reviews )
Source: Schoeps MK22>KC5>CMC6>Sonosax SX-M2>Apogee Mini-me(@24 Bit 96khz aes out)>COAX>Edirol R-44
Club d'Elf
by Club d'Elf
191
0
1
( 1 reviews )
Source: Schoeps MK22>KC5>CMC6>Sonosax SX-M2>Apogee Mini-me(aes out,24bit/96khz)>COAX>Edirol R-44 + Soundboard>R-44
Club d'Elf
by Club d'Elf
63
0
1
( 1 reviews )
Source: Schoeps MK 22>KC5>CMC6>Sonosax SX-M2>Apogee Mini-me(24 Bit/96 khz,aes out)>COAX>Edirol R-44 +Soundboard>Channels 3&4 Edirol R-44
Club d'Elf
by Club d'Elf
150
0
1
( 1 reviews )
Source: Schoeps MK22>KC5>CMC6>Sonosax SX-M2>Apogee Mini-me(@24 Bit 96khz aes out)>COAX>Edirol R-44
Club d'Elf
by Club d'Elf
44
0
0
Source: Schoeps MK 22>KC5>CMC6>Sonosax SX-M2>Apogee Mini-me(24 Bit/96 khz,aes out)>COAX>Edirol R-44 +Schoeps MK21>KC5>CMC6>R-44